  0
SECTION
  2
HEADER
  9
$ACADVER
  1
AC1009
  9
$INSBASE
 10
0.0
 20
0.0
 30
0.0
  9
$EXTMIN
 10
0.52
 20
2.369429
 30
0.0
  9
$EXTMAX
 10
14.9
 20
7.847982
 30
0.0
  9
$LIMMIN
 10
0.0
 20
0.0
  9
$LIMMAX
 10
17.0
 20
11.0
  9
$ORTHOMODE
 70
     0
  9
$REGENMODE
 70
     1
  9
$FILLMODE
 70
     1
  9
$QTEXTMODE
 70
     0
  9
$MIRRTEXT
 70
     1
  9
$DRAGMODE
 70
     2
  9
$LTSCALE
 40
1.0
  9
$OSMODE
 70
     0
  9
$ATTMODE
 70
     1
  9
$TEXTSIZE
 40
0.1
  9
$TRACEWID
 40
0.05
  9
$TEXTSTYLE
  7
STANDARD
  9
$CLAYER
  8
MARKS
  9
$CELTYPE
  6
BYLAYER
  9
$CECOLOR
 62
   256
  9
$DIMSCALE
 40
1.0
  9
$DIMASZ
 40
0.18
  9
$DIMEXO
 40
0.0625
  9
$DIMDLI
 40
0.38
  9
$DIMRND
 40
0.0
  9
$DIMDLE
 40
0.0
  9
$DIMEXE
 40
0.18
  9
$DIMTP
 40
0.0
  9
$DIMTM
 40
0.0
  9
$DIMTXT
 40
0.18
  9
$DIMCEN
 40
0.09
  9
$DIMTSZ
 40
0.0
  9
$DIMTOL
 70
     0
  9
$DIMLIM
 70
     0
  9
$DIMTIH
 70
     1
  9
$DIMTOH
 70
     1
  9
$DIMSE1
 70
     0
  9
$DIMSE2
 70
     0
  9
$DIMTAD
 70
     0
  9
$DIMZIN
 70
     0
  9
$DIMBLK
  1

  9
$DIMASO
 70
     1
  9
$DIMSHO
 70
     1
  9
$DIMPOST
  1

  9
$DIMAPOST
  1

  9
$DIMALT
 70
     0
  9
$DIMALTD
 70
     2
  9
$DIMALTF
 40
25.4
  9
$DIMLFAC
 40
1.0
  9
$DIMTOFL
 70
     0
  9
$DIMTVP
 40
0.0
  9
$DIMTIX
 70
     0
  9
$DIMSOXD
 70
     0
  9
$DIMSAH
 70
     0
  9
$DIMBLK1
  1

  9
$DIMBLK2
  1

  9
$DIMSTYLE
  2
*UNNAMED
  9
$DIMCLRD
 70
     0
  9
$DIMCLRE
 70
     0
  9
$DIMCLRT
 70
     0
  9
$DIMTFAC
 40
1.0
  9
$DIMGAP
 40
0.09
  9
$LUNITS
 70
     2
  9
$LUPREC
 70
     4
  9
$SKETCHINC
 40
0.1
  9
$FILLETRAD
 40
0.05
  9
$AUNITS
 70
     0
  9
$AUPREC
 70
     0
  9
$MENU
  1
acad
  9
$ELEVATION
 40
0.0
  9
$PELEVATION
 40
0.0
  9
$THICKNESS
 40
0.0
  9
$LIMCHECK
 70
     0
  9
$BLIPMODE
 70
     1
  9
$CHAMFERA
 40
0.0
  9
$CHAMFERB
 40
0.0
  9
$SKPOLY
 70
     0
  9
$TDCREATE
 40
2453667.542265278
  9
$TDUPDATE
 40
2453667.543610416
  9
$TDINDWG
 40
0.0004557870
  9
$TDUSRTIMER
 40
0.0004557870
  9
$USRTIMER
 70
     1
  9
$ANGBASE
 50
0.0
  9
$ANGDIR
 70
     0
  9
$PDMODE
 70
     0
  9
$PDSIZE
 40
0.0
  9
$PLINEWID
 40
0.0
  9
$COORDS
 70
     1
  9
$SPLFRAME
 70
     0
  9
$SPLINETYPE
 70
     6
  9
$SPLINESEGS
 70
     8
  9
$ATTDIA
 70
     0
  9
$ATTREQ
 70
     1
  9
$HANDLING
 70
     0
  9
$HANDSEED
  5
0
  9
$SURFTAB1
 70
     6
  9
$SURFTAB2
 70
     6
  9
$SURFTYPE
 70
     6
  9
$SURFU
 70
     6
  9
$SURFV
 70
     6
  9
$UCSNAME
  2

  9
$UCSORG
 10
0.0
 20
0.0
 30
0.0
  9
$UCSXDIR
 10
1.0
 20
0.0
 30
0.0
  9
$UCSYDIR
 10
0.0
 20
1.0
 30
0.0
  9
$PUCSNAME
  2

  9
$PUCSORG
 10
0.0
 20
0.0
 30
0.0
  9
$PUCSXDIR
 10
1.0
 20
0.0
 30
0.0
  9
$PUCSYDIR
 10
0.0
 20
1.0
 30
0.0
  9
$USERI1
 70
     0
  9
$USERI2
 70
     0
  9
$USERI3
 70
     0
  9
$USERI4
 70
     0
  9
$USERI5
 70
     0
  9
$USERR1
 40
0.0
  9
$USERR2
 40
0.0
  9
$USERR3
 40
0.0
  9
$USERR4
 40
0.0
  9
$USERR5
 40
0.0
  9
$WORLDVIEW
 70
     1
  9
$SHADEDGE
 70
     3
  9
$SHADEDIF
 70
    70
  9
$TILEMODE
 70
     1
  9
$MAXACTVP
 70
    16
  9
$PINSBASE
 10
0.0
 20
0.0
 30
0.0
  9
$PLIMCHECK
 70
     0
  9
$PEXTMIN
 10
1.000000E+20
 20
1.000000E+20
 30
1.000000E+20
  9
$PEXTMAX
 10
-1.000000E+20
 20
-1.000000E+20
 30
-1.000000E+20
  9
$PLIMMIN
 10
0.0
 20
0.0
  9
$PLIMMAX
 10
12.0
 20
9.0
  9
$UNITMODE
 70
     0
  9
$VISRETAIN
 70
     0
  9
$PLINEGEN
 70
     0
  9
$PSLTSCALE
 70
     1
  9
$TREEDEPTH
 70
  3020
  9
$DWGCODEPAGE
  3
iso8859-1
  0
ENDSEC
  0
SECTION
  2
TABLES
  0
TABLE
  2
VPORT
 70
     2
  0
VPORT
  2
*ACTIVE
 70
     0
 10
0.0
 20
0.0
 11
1.0
 21
1.0
 12
7.71
 22
6.938443
 13
0.0
 23
0.0
 14
1.0
 24
1.0
 15
0.0
 25
0.0
 16
0.0
 26
0.0
 36
1.0
 17
0.0
 27
0.0
 37
0.0
 40
9.13803
 41
1.573643
 42
50.0
 43
0.0
 44
0.0
 50
0.0
 51
0.0
 71
     0
 72
   100
 73
     1
 74
     1
 75
     0
 76
     1
 77
     0
 78
     0
  0
ENDTAB
  0
TABLE
  2
LTYPE
 70
     1
  0
LTYPE
  2
CONTINUOUS
 70
    64
  3
Solid line
 72
    65
 73
     0
 40
0.0
  0
ENDTAB
  0
TABLE
  2
LAYER
 70
     8
  0
LAYER
  2
0
 70
    64
 62
     7
  6
CONTINUOUS
  0
LAYER
  2
TAILSTOCK
 70
     0
 62
    92
  6
CONTINUOUS
  0
LAYER
  2
DEFPOINTS
 70
    64
 62
     7
  6
CONTINUOUS
  0
LAYER
  2
MARKS
 70
    64
 62
    50
  6
CONTINUOUS
  0
LAYER
  2
SCREW
 70
     0
 62
   160
  6
CONTINUOUS
  0
LAYER
  2
HOUSING
 70
     0
 62
   240
  6
CONTINUOUS
  0
LAYER
  2
DIMS
 70
     0
 62
    70
  6
CONTINUOUS
  0
LAYER
  2
SLIDEBLOCK
 70
    64
 62
   170
  6
CONTINUOUS
  0
ENDTAB
  0
TABLE
  2
STYLE
 70
     1
  0
STYLE
  2
STANDARD
 70
    64
 40
0.0
 41
1.0
 50
0.0
 71
     0
 42
0.1
  3
txt
  4

  0
ENDTAB
  0
TABLE
  2
VIEW
 70
     0
  0
ENDTAB
  0
TABLE
  2
UCS
 70
     0
  0
ENDTAB
  0
TABLE
  2
APPID
 70
     1
  0
APPID
  2
ACAD
 70
    64
  0
ENDTAB
  0
TABLE
  2
DIMSTYLE
 70
     0
  0
ENDTAB
  0
ENDSEC
  0
SECTION
  2
BLOCKS
  0
BLOCK
  8
0
  2
*D0
 70
    65
 10
0.0
 20
0.0
 30
0.0
  3
*D
  0
LINE
  8
0
  6
BYBLOCK
 62
     0
 10
6.0
 20
17.8125
 30
0.0
 11
6.0
 21
18.847982
 31
0.0
  0
LINE
  8
0
  6
BYBLOCK
 62
     0
 10
10.9
 20
17.8125
 30
0.0
 11
10.9
 21
18.847982
 31
0.0
  0
LINE
  8
0
  6
BYBLOCK
 62
     0
 10
6.18
 20
18.667982
 30
0.0
 11
7.955
 21
18.667982
 31
0.0
  0
LINE
  8
0
  6
BYBLOCK
 62
     0
 10
10.72
 20
18.667982
 30
0.0
 11
8.945
 21
18.667982
 31
0.0
  0
SOLID
  8
0
  6
BYBLOCK
 62
     0
 10
6.18
 20
18.697982
 30
0.0
 11
6.18
 21
18.637982
 31
0.0
 12
6.0
 22
18.667982
 32
0.0
 13
6.0
 23
18.667982
 33
0.0
  0
SOLID
  8
0
  6
BYBLOCK
 62
     0
 10
10.72
 20
18.697982
 30
0.0
 11
10.72
 21
18.637982
 31
0.0
 12
10.9
 22
18.667982
 32
0.0
 13
10.9
 23
18.667982
 33
0.0
  0
TEXT
  8
0
  6
BYBLOCK
 62
     0
 10
8.045
 20
18.577982
 30
0.0
 40
0.18
  1
4.9000
 72
     1
 11
8.45
 21
18.667982
 31
0.0
 73
     2
  0
POINT
  8
DEFPOINTS
  6
BYBLOCK
 62
     0
 10
6.0
 20
17.75
 30
0.0
  0
POINT
  8
DEFPOINTS
  6
BYBLOCK
 62
     0
 10
10.9
 20
17.75
 30
0.0
  0
POINT
  8
DEFPOINTS
  6
BYBLOCK
 62
     0
 10
10.9
 20
18.667982
 30
0.0
  0
ENDBLK
  8
0
  0
BLOCK
  8
0
  2
*D1
 70
    65
 10
0.0
 20
0.0
 30
0.0
  3
*D
  0
LINE
  8
0
  6
BYBLOCK
 62
     0
 10
6.0
 20
17.8125
 30
0.0
 11
6.0
 21
18.374476
 31
0.0
  0
LINE
  8
0
  6
BYBLOCK
 62
     0
 10
6.482
 20
17.8125
 30
0.0
 11
6.482
 21
18.374476
 31
0.0
  0
LINE
  8
0
  6
BYBLOCK
 62
     0
 10
5.82
 20
18.194476
 30
0.0
 11
5.64
 21
18.194476
 31
0.0
  0
LINE
  8
0
  6
BYBLOCK
 62
     0
 10
6.662
 20
18.194476
 30
0.0
 11
6.842
 21
18.194476
 31
0.0
  0
SOLID
  8
0
  6
BYBLOCK
 62
     0
 10
5.82
 20
18.224476
 30
0.0
 11
5.82
 21
18.164476
 31
0.0
 12
6.0
 22
18.194476
 32
0.0
 13
6.0
 23
18.194476
 33
0.0
  0
SOLID
  8
0
  6
BYBLOCK
 62
     0
 10
6.662
 20
18.224476
 30
0.0
 11
6.662
 21
18.164476
 31
0.0
 12
6.482
 22
18.194476
 32
0.0
 13
6.482
 23
18.194476
 33
0.0
  0
TEXT
  8
0
  6
BYBLOCK
 62
     0
 10
6.932
 20
18.104476
 30
0.0
 40
0.18
  1
0.4820
 72
     1
 11
7.352
 21
18.194476
 31
0.0
 73
     2
  0
POINT
  8
DEFPOINTS
  6
BYBLOCK
 62
     0
 10
6.0
 20
17.75
 30
0.0
  0
POINT
  8
DEFPOINTS
  6
BYBLOCK
 62
     0
 10
6.482
 20
17.75
 30
0.0
  0
POINT
  8
DEFPOINTS
  6
BYBLOCK
 62
     0
 10
6.482
 20
18.194476
 30
0.0
  0
ENDBLK
  8
0
  0
BLOCK
  8
0
  2
*D2
 70
    65
 10
0.0
 20
0.0
 30
0.0
  3
*D
  0
LINE
  8
0
  6
BYBLOCK
 62
     0
 10
6.271671
 20
17.436173
 30
0.0
 11
6.128533
 21
17.598941
 31
0.0
  0
LINE
  8
0
  6
BYBLOCK
 62
     0
 10
6.128533
 20
17.598941
 30
0.0
 11
5.948533
 21
17.598941
 31
0.0
  0
SOLID
  8
0
  6
BYBLOCK
 62
     0
 10
6.249143
 20
17.416362
 30
0.0
 11
6.294199
 21
17.455984
 31
0.0
 12
6.390538
 22
17.301005
 32
0.0
 13
6.390538
 23
17.301005
 33
0.0
  0
LINE
  8
0
  6
BYBLOCK
 62
     0
 10
6.392
 20
17.197
 30
0.0
 11
6.572
 21
17.197
 31
0.0
  0
LINE
  8
0
  6
BYBLOCK
 62
     0
 10
6.482
 20
17.107
 30
0.0
 11
6.482
 21
17.287
 31
0.0
  0
TEXT
  8
0
  6
BYBLOCK
 62
     0
 10
3.038533
 20
17.508941
 30
0.0
 40
0.18
  1
0.277 (J) - 3 Plcs
 72
     1
 11
4.448533
 21
17.598941
 31
0.0
 73
     2
  0
POINT
  8
DEFPOINTS
  6
BYBLOCK
 62
     0
 10
6.390538
 20
17.301005
 30
0.0
  0
POINT
  8
DEFPOINTS
  6
BYBLOCK
 62
     0
 10
6.573462
 20
17.092995
 30
0.0
  0
ENDBLK
  8
0
  0
BLOCK
  8
0
  2
*D3
 70
    65
 10
0.0
 20
0.0
 30
0.0
  3
*D
  0
LINE
  8
0
  6
BYBLOCK
 62
     0
 10
12.2025
 20
17.425
 30
0.0
 11
12.528439
 21
17.425
 31
0.0
  0
LINE
  8
0
  6
BYBLOCK
 62
     0
 10
12.2025
 20
17.75
 30
0.0
 11
12.528439
 21
17.75
 31
0.0
  0
LINE
  8
0
  6
BYBLOCK
 62
     0
 10
12.348439
 20
17.245
 30
0.0
 11
12.348439
 21
17.065
 31
0.0
  0
LINE
  8
0
  6
BYBLOCK
 62
     0
 10
12.348439
 20
17.93
 30
0.0
 11
12.348439
 21
18.11
 31
0.0
  0
LINE
  8
0
  6
BYBLOCK
 62
     0
 10
12.348439
 20
18.11
 30
0.0
 11
12.528439
 21
18.11
 31
0.0
  0
SOLID
  8
0
  6
BYBLOCK
 62
     0
 10
12.318439
 20
17.245
 30
0.0
 11
12.378439
 21
17.245
 31
0.0
 12
12.348439
 22
17.425
 32
0.0
 13
12.348439
 23
17.425
 33
0.0
  0
SOLID
  8
0
  6
BYBLOCK
 62
     0
 10
12.318439
 20
17.93
 30
0.0
 11
12.378439
 21
17.93
 31
0.0
 12
12.348439
 22
17.75
 32
0.0
 13
12.348439
 23
17.75
 33
0.0
  0
TEXT
  8
0
  6
BYBLOCK
 62
     0
 10
12.618439
 20
18.02
 30
0.0
 40
0.18
  1
0.3250
 72
     1
 11
13.038439
 21
18.11
 31
0.0
 73
     2
  0
POINT
  8
DEFPOINTS
  6
BYBLOCK
 62
     0
 10
12.14
 20
17.425
 30
0.0
  0
POINT
  8
DEFPOINTS
  6
BYBLOCK
 62
     0
 10
12.14
 20
17.75
 30
0.0
  0
POINT
  8
DEFPOINTS
  6
BYBLOCK
 62
     0
 10
12.348439
 20
17.75
 30
0.0
  0
ENDBLK
  8
0
  0
BLOCK
  8
0
  2
*D4
 70
    65
 10
0.0
 20
0.0
 30
0.0
  3
*D
  0
LINE
  8
0
  6
BYBLOCK
 62
     0
 10
12.1625
 20
17.0
 30
0.0
 11
13.096843
 21
17.0
 31
0.0
  0
LINE
  8
0
  6
BYBLOCK
 62
     0
 10
12.1625
 20
17.425
 30
0.0
 11
13.096843
 21
17.425
 31
0.0
  0
LINE
  8
0
  6
BYBLOCK
 62
     0
 10
12.916843
 20
16.82
 30
0.0
 11
12.916843
 21
16.64
 31
0.0
  0
LINE
  8
0
  6
BYBLOCK
 62
     0
 10
12.916843
 20
17.605
 30
0.0
 11
12.916843
 21
17.785
 31
0.0
  0
LINE
  8
0
  6
BYBLOCK
 62
     0
 10
12.916843
 20
17.785
 30
0.0
 11
13.096843
 21
17.785
 31
0.0
  0
SOLID
  8
0
  6
BYBLOCK
 62
     0
 10
12.886843
 20
16.82
 30
0.0
 11
12.946843
 21
16.82
 31
0.0
 12
12.916843
 22
17.0
 32
0.0
 13
12.916843
 23
17.0
 33
0.0
  0
SOLID
  8
0
  6
BYBLOCK
 62
     0
 10
12.886843
 20
17.605
 30
0.0
 11
12.946843
 21
17.605
 31
0.0
 12
12.916843
 22
17.425
 32
0.0
 13
12.916843
 23
17.425
 33
0.0
  0
TEXT
  8
0
  6
BYBLOCK
 62
     0
 10
13.186843
 20
17.695
 30
0.0
 40
0.18
  1
0.4250
 72
     1
 11
13.606843
 21
17.785
 31
0.0
 73
     2
  0
POINT
  8
DEFPOINTS
  6
BYBLOCK
 62
     0
 10
12.1
 20
17.0
 30
0.0
  0
POINT
  8
DEFPOINTS
  6
BYBLOCK
 62
     0
 10
12.1
 20
17.425
 30
0.0
  0
POINT
  8
DEFPOINTS
  6
BYBLOCK
 62
     0
 10
12.916843
 20
17.425
 30
0.0
  0
ENDBLK
  8
0
  0
BLOCK
  8
0
  2
*D5
 70
    65
 10
0.0
 20
0.0
 30
0.0
  3
*D
  0
LINE
  8
0
  6
BYBLOCK
 62
     0
 10
11.8375
 20
17.75
 30
0.0
 11
11.521089
 21
17.75
 31
0.0
  0
LINE
  8
0
  6
BYBLOCK
 62
     0
 10
11.8375
 20
17.0
 30
0.0
 11
11.521089
 21
17.0
 31
0.0
  0
LINE
  8
0
  6
BYBLOCK
 62
     0
 10
11.701089
 20
17.93
 30
0.0
 11
11.701089
 21
18.11
 31
0.0
  0
LINE
  8
0
  6
BYBLOCK
 62
     0
 10
11.701089
 20
16.82
 30
0.0
 11
11.701089
 21
16.64
 31
0.0
  0
LINE
  8
0
  6
BYBLOCK
 62
     0
 10
11.701089
 20
16.64
 30
0.0
 11
11.521089
 21
16.64
 31
0.0
  0
SOLID
  8
0
  6
BYBLOCK
 62
     0
 10
11.671089
 20
17.93
 30
0.0
 11
11.731089
 21
17.93
 31
0.0
 12
11.701089
 22
17.75
 32
0.0
 13
11.701089
 23
17.75
 33
0.0
  0
SOLID
  8
0
  6
BYBLOCK
 62
     0
 10
11.671089
 20
16.82
 30
0.0
 11
11.731089
 21
16.82
 31
0.0
 12
11.701089
 22
17.0
 32
0.0
 13
11.701089
 23
17.0
 33
0.0
  0
TEXT
  8
0
  6
BYBLOCK
 62
     0
 10
10.621089
 20
16.55
 30
0.0
 40
0.18
  1
0.7500
 72
     1
 11
11.026089
 21
16.64
 31
0.0
 73
     2
  0
POINT
  8
DEFPOINTS
  6
BYBLOCK
 62
     0
 10
11.9
 20
17.75
 30
0.0
  0
POINT
  8
DEFPOINTS
  6
BYBLOCK
 62
     0
 10
11.9
 20
17.0
 30
0.0
  0
POINT
  8
DEFPOINTS
  6
BYBLOCK
 62
     0
 10
11.701089
 20
17.0
 30
0.0
  0
ENDBLK
  8
0
  0
BLOCK
  8
0
  2
*D6
 70
    65
 10
0.0
 20
0.0
 30
0.0
  3
*D
  0
LINE
  8
0
  6
BYBLOCK
 62
     0
 10
8.45
 20
17.8125
 30
0.0
 11
8.45
 21
18.374476
 31
0.0
  0
LINE
  8
0
  6
BYBLOCK
 62
     0
 10
10.418
 20
17.8125
 30
0.0
 11
10.418
 21
18.374476
 31
0.0
  0
LINE
  8
0
  6
BYBLOCK
 62
     0
 10
8.63
 20
18.194476
 30
0.0
 11
8.939
 21
18.194476
 31
0.0
  0
LINE
  8
0
  6
BYBLOCK
 62
     0
 10
10.238
 20
18.194476
 30
0.0
 11
9.929
 21
18.194476
 31
0.0
  0
SOLID
  8
0
  6
BYBLOCK
 62
     0
 10
8.63
 20
18.224476
 30
0.0
 11
8.63
 21
18.164476
 31
0.0
 12
8.45
 22
18.194476
 32
0.0
 13
8.45
 23
18.194476
 33
0.0
  0
SOLID
  8
0
  6
BYBLOCK
 62
     0
 10
10.238
 20
18.224476
 30
0.0
 11
10.238
 21
18.164476
 31
0.0
 12
10.418
 22
18.194476
 32
0.0
 13
10.418
 23
18.194476
 33
0.0
  0
TEXT
  8
0
  6
BYBLOCK
 62
     0
 10
9.029
 20
18.104476
 30
0.0
 40
0.18
  1
1.9680
 72
     1
 11
9.434
 21
18.194476
 31
0.0
 73
     2
  0
POINT
  8
DEFPOINTS
  6
BYBLOCK
 62
     0
 10
8.45
 20
17.75
 30
0.0
  0
POINT
  8
DEFPOINTS
  6
BYBLOCK
 62
     0
 10
10.418
 20
17.75
 30
0.0
  0
POINT
  8
DEFPOINTS
  6
BYBLOCK
 62
     0
 10
10.418
 20
18.194476
 30
0.0
  0
ENDBLK
  8
0
  0
BLOCK
  8
0
  2
*D7
 70
    65
 10
0.0
 20
0.0
 30
0.0
  3
*D
  0
LINE
  8
0
  6
BYBLOCK
 62
     0
 10
12.1
 20
17.3625
 30
0.0
 11
12.1
 21
15.994183
 31
0.0
  0
LINE
  8
0
  6
BYBLOCK
 62
     0
 10
12.14
 20
17.3625
 30
0.0
 11
12.14
 21
15.994183
 31
0.0
  0
LINE
  8
0
  6
BYBLOCK
 62
     0
 10
11.92
 20
16.174183
 30
0.0
 11
11.74
 21
16.174183
 31
0.0
  0
LINE
  8
0
  6
BYBLOCK
 62
     0
 10
12.32
 20
16.174183
 30
0.0
 11
12.5
 21
16.174183
 31
0.0
  0
SOLID
  8
0
  6
BYBLOCK
 62
     0
 10
11.92
 20
16.204183
 30
0.0
 11
11.92
 21
16.144183
 31
0.0
 12
12.1
 22
16.174183
 32
0.0
 13
12.1
 23
16.174183
 33
0.0
  0
SOLID
  8
0
  6
BYBLOCK
 62
     0
 10
12.32
 20
16.204183
 30
0.0
 11
12.32
 21
16.144183
 31
0.0
 12
12.14
 22
16.174183
 32
0.0
 13
12.14
 23
16.174183
 33
0.0
  0
TEXT
  8
0
  6
BYBLOCK
 62
     0
 10
12.59
 20
16.084183
 30
0.0
 40
0.18
  1
0.040 (As Reqd)
 72
     1
 11
13.745
 21
16.174183
 31
0.0
 73
     2
  0
POINT
  8
DEFPOINTS
  6
BYBLOCK
 62
     0
 10
12.1
 20
17.425
 30
0.0
  0
POINT
  8
DEFPOINTS
  6
BYBLOCK
 62
     0
 10
12.14
 20
17.425
 30
0.0
  0
POINT
  8
DEFPOINTS
  6
BYBLOCK
 62
     0
 10
12.14
 20
16.174183
 30
0.0
  0
ENDBLK
  8
0
  0
BLOCK
  8
0
  2
*D8
 70
    65
 10
0.0
 20
0.0
 30
0.0
  3
*D
  0
LINE
  8
0
  6
BYBLOCK
 62
     0
 10
5.9375
 20
17.197
 30
0.0
 11
5.487411
 21
17.197
 31
0.0
  0
LINE
  8
0
  6
BYBLOCK
 62
     0
 10
5.9375
 20
17.0
 30
0.0
 11
5.487411
 21
17.0
 31
0.0
  0
LINE
  8
0
  6
BYBLOCK
 62
     0
 10
5.667411
 20
17.377
 30
0.0
 11
5.667411
 21
17.557
 31
0.0
  0
LINE
  8
0
  6
BYBLOCK
 62
     0
 10
5.667411
 20
16.82
 30
0.0
 11
5.667411
 21
16.64
 31
0.0
  0
LINE
  8
0
  6
BYBLOCK
 62
     0
 10
5.667411
 20
16.64
 30
0.0
 11
5.487411
 21
16.64
 31
0.0
  0
SOLID
  8
0
  6
BYBLOCK
 62
     0
 10
5.637411
 20
17.377
 30
0.0
 11
5.697411
 21
17.377
 31
0.0
 12
5.667411
 22
17.197
 32
0.0
 13
5.667411
 23
17.197
 33
0.0
  0
SOLID
  8
0
  6
BYBLOCK
 62
     0
 10
5.637411
 20
16.82
 30
0.0
 11
5.697411
 21
16.82
 31
0.0
 12
5.667411
 22
17.0
 32
0.0
 13
5.667411
 23
17.0
 33
0.0
  0
TEXT
  8
0
  6
BYBLOCK
 62
     0
 10
4.617411
 20
16.55
 30
0.0
 40
0.18
  1
0.1970
 72
     1
 11
5.007411
 21
16.64
 31
0.0
 73
     2
  0
POINT
  8
DEFPOINTS
  6
BYBLOCK
 62
     0
 10
6.0
 20
17.197
 30
0.0
  0
POINT
  8
DEFPOINTS
  6
BYBLOCK
 62
     0
 10
6.0
 20
17.0
 30
0.0
  0
POINT
  8
DEFPOINTS
  6
BYBLOCK
 62
     0
 10
5.667411
 20
17.0
 30
0.0
  0
ENDBLK
  8
0
  0
ENDSEC
  0
SECTION
  2
ENTITIES
  0
LINE
  8
SLIDEBLOCK
 10
5.0
 20
6.0
 30
0.0
 11
9.9
 21
6.0
 31
0.0
  0
LINE
  8
MARKS
 10
5.0
 20
6.197
 30
0.0
 11
9.9
 21
6.197
 31
0.0
  0
LINE
  8
MARKS
 10
5.482
 20
6.75
 30
0.0
 11
5.482
 21
6.0
 31
0.0
  0
LINE
  8
MARKS
 10
9.418
 20
6.0
 30
0.0
 11
9.418
 21
6.75
 31
0.0
  0
LINE
  8
MARKS
 10
7.45
 20
6.75
 30
0.0
 11
7.45
 21
6.0
 31
0.0
  0
CIRCLE
  8
SLIDEBLOCK
 10
7.45
 20
6.197
 30
0.0
 40
0.1385
  0
CIRCLE
  8
SLIDEBLOCK
 10
5.482
 20
6.197
 30
0.0
 40
0.1385
  0
CIRCLE
  8
SLIDEBLOCK
 10
9.418
 20
6.197
 30
0.0
 40
0.1385
  0
LINE
  8
SLIDEBLOCK
 10
9.9
 20
6.0
 30
0.0
 11
9.9
 21
6.75
 31
0.0
  0
LINE
  8
SLIDEBLOCK
 10
9.9
 20
6.75
 30
0.0
 11
5.0
 21
6.75
 31
0.0
  0
LINE
  8
SLIDEBLOCK
 10
5.0
 20
6.0
 30
0.0
 11
5.0
 21
6.75
 31
0.0
  0
LINE
  8
SLIDEBLOCK
 10
5.0
 20
6.425
 30
0.0
 11
9.9
 21
6.425
 31
0.0
  0
LINE
  8
SLIDEBLOCK
 10
10.9
 20
6.0
 30
0.0
 11
10.9
 21
6.75
 31
0.0
  0
LINE
  8
SLIDEBLOCK
 10
11.14
 20
6.425
 30
0.0
 11
11.14
 21
6.75
 31
0.0
  0
LINE
  8
SLIDEBLOCK
 10
11.1
 20
6.0
 30
0.0
 11
11.1
 21
6.425
 31
0.0
  0
LINE
  8
SLIDEBLOCK
 10
11.1
 20
6.425
 30
0.0
 11
11.14
 21
6.425
 31
0.0
  0
LINE
  8
SLIDEBLOCK
 10
10.9
 20
6.0
 30
0.0
 11
11.1
 21
6.0
 31
0.0
  0
LINE
  8
SLIDEBLOCK
 10
10.9
 20
6.75
 30
0.0
 11
11.14
 21
6.75
 31
0.0
  0
DIMENSION
  8
MARKS
  2
*D0
 10
9.9
 20
7.667982
 30
0.0
 11
7.45
 21
7.667982
 31
0.0
 12
-1.0
 22
-11.0
 32
0.0
 13
5.0
 23
6.75
 33
0.0
 14
9.9
 24
6.75
 34
0.0
  0
DIMENSION
  8
MARKS
  2
*D1
 10
5.482
 20
7.194476
 30
0.0
 11
6.352
 21
7.194476
 31
0.0
 12
-1.0
 22
-11.0
 32
0.0
 13
5.0
 23
6.75
 33
0.0
 14
5.482
 24
6.75
 34
0.0
  0
DIMENSION
  8
MARKS
  2
*D2
 10
5.573462
 20
6.092995
 30
0.0
 11
3.448533
 21
6.598941
 31
0.0
 12
-1.0
 22
-11.0
 32
0.0
 70
     3
  1
0.277 (J) - 3 Plcs
 15
5.390538
 25
6.301005
 35
0.0
 40
0.396753
  0
DIMENSION
  8
MARKS
  2
*D3
 10
11.348439
 20
6.75
 30
0.0
 11
12.038439
 21
7.11
 31
0.0
 12
-1.0
 22
-11.0
 32
0.0
 13
11.14
 23
6.425
 33
0.0
 14
11.14
 24
6.75
 34
0.0
 50
90.0
  0
DIMENSION
  8
MARKS
  2
*D4
 10
11.916843
 20
6.425
 30
0.0
 11
12.606843
 21
6.785
 31
0.0
 12
-1.0
 22
-11.0
 32
0.0
 13
11.1
 23
6.0
 33
0.0
 14
11.1
 24
6.425
 34
0.0
 50
90.0
  0
DIMENSION
  8
MARKS
  2
*D5
 10
10.701089
 20
6.0
 30
0.0
 11
10.026089
 21
5.64
 31
0.0
 12
-1.0
 22
-11.0
 32
0.0
 13
10.9
 23
6.75
 33
0.0
 14
10.9
 24
6.0
 34
0.0
 50
90.0
  0
DIMENSION
  8
MARKS
  2
*D6
 10
9.418
 20
7.194476
 30
0.0
 11
8.434
 21
7.194476
 31
0.0
 12
-1.0
 22
-11.0
 32
0.0
  1
1.9680
 13
7.45
 23
6.75
 33
0.0
 14
9.418
 24
6.75
 34
0.0
  0
DIMENSION
  8
MARKS
  2
*D7
 10
11.14
 20
5.174183
 30
0.0
 11
12.745
 21
5.174183
 31
0.0
 12
-1.0
 22
-11.0
 32
0.0
  1
0.040 (As Reqd)
 13
11.1
 23
6.425
 33
0.0
 14
11.14
 24
6.425
 34
0.0
  0
DIMENSION
  8
MARKS
  2
*D8
 10
4.667411
 20
6.0
 30
0.0
 11
4.007411
 21
5.64
 31
0.0
 12
-1.0
 22
-11.0
 32
0.0
 13
5.0
 23
6.197
 33
0.0
 14
5.0
 24
6.0
 34
0.0
 50
90.0
  0
TEXT
  8
MARKS
 10
10.999534
 20
3.768591
 30
0.0
 40
0.2
  1
9 x 20 Lathe
  0
TEXT
  8
MARKS
 10
10.969524
 20
3.398595
 30
0.0
 40
0.175
  1
Slide Block, Rear
  0
TEXT
  8
MARKS
 10
11.0
 20
3.0
 30
0.0
 40
0.1
  1
10/20/05    M. Micllef
  0
ENDSEC
  0
EOF
